Shion no Ou | Dragon Gate | 1ª Temporada Dub

Action

Batman Gotham Knight 2008 Eng MP3 DVDrip M333 FLAWL3SS RG

  • Download 5x Faster
  • Download torrent
  • Direct Download
  • Rate this torrent +  |  -
Batman Gotham Knight 2008 Eng MP3 DVDrip M333 FLAWL3SS RG

Anonymous and Free Direct Download 300GB+


Torrent info

Name:Batman Gotham Knight 2008 Eng MP3 DVDrip M333 FLAWL3SS RG

Total Size: 700.38 MB

Magnet: Magnet Link

Seeds: 0

Leechers: 0

Stream: Watch Online @ Movie4u

Last Updated: 2015-09-06 11:20:18 (Update Now)

Torrent added: 2008-06-28 12:36:18



VPN For Torrents

Torrent Files List


Batman - Gotham Knight [2008] [Eng] [MP3] [DVDrip-M333]-FLAWL3SS_RG.avi (Size: 700.38 MB) (Files: 5)

 Batman - Gotham Knight [2008] [Eng] [MP3] [DVDrip-M333]-FLAWL3SS_RG.avi

700.14 MB

 Batman Gotham Knight.jpg

34.11 KB

 Logo.jpg

205.50 KB

 nfo.txt

2.95 KB

 Torrent downloaded from Demonoid.com.txt

0.05 KB
 

tracker

leech seeds
 

Torrent description

General
Complete name : Batman - Gotham Knight [2008] [Eng] [MP3] [DVDrip-M333]-FLAWL3SS_RG.avi
Format : AVI
Format/Info : Audio Video Interleave
File size : 700 MiB
Duration : 1h 15mn
Overal bit rate : 1289 Kbps
Movie name : Batman - Gotham Knight
Writing application : M333-FLAWL3SS_RG

Video
Format : MPEG-4 Visual
Format profile : Streaming [email protected]
Format settings, BVOP : Yes
Format settings, QPel : No
Format settings, GMC : No warppoints
Format settings, Matrix : Custom
Codec ID : XVID
Codec ID/Hint : XviD
Duration : 1h 15mn
Bit rate : 1160 Kbps
Width : 720 pixels
Height : 416 pixels
Display aspect ratio : 16/9
Frame rate : 23.976 fps
Resolution : 8 bits
Colorimetry : 4:2:0
Scan type : Progressive
Bits/(Pixel*Frame) : 0.162
Stream size : 630 MiB
Writing library : XviD 1.2.0.dev47 (UTC 2006-11-01)

Audio
Format : MPEG Audio
Format version : Version 1
Format profile : Layer 3
Codec ID : 55
Codec ID/Hint : MP3
Duration : 1h 15mn
Bit rate mode : Constant
Bit rate : 32.0 Kbps
Channel(s) : 2 channels
Sampling rate : 48.0 KHz
Resolution : 16 bits
Stream size : 62.9 MiB
Writing library : LAME3.97
Language : english

HASH

918E012DD4FFE36D25433752A6E9C186D7ACD792

Trackers

http://tpb.tracker.thepiratebay.org:80/announce

http://denis.stalker.h3q.com:6969/announce

http://open.tracker.thepiratebay.org/announce

http://www.torrentsnipe.info:2701/announce

http://open.tracker.thepiratebay.org/announce

http://vip.tracker.thepiratebay.org:80/announce


Screen Shots

Batman   Gotham Knight 2008 Eng MP3 DVDrip M333 FLAWL3SS RG preview 0

Batman   Gotham Knight 2008 Eng MP3 DVDrip M333 FLAWL3SS RG preview 1

Batman   Gotham Knight 2008 Eng MP3 DVDrip M333 FLAWL3SS RG preview 2

Batman   Gotham Knight 2008 Eng MP3 DVDrip M333 FLAWL3SS RG preview 3

Batman   Gotham Knight 2008 Eng MP3 DVDrip M333 FLAWL3SS RG preview 4

Imdb

http://www.imdb.com/title/tt1117563/

TRAILER=====TRAILER=====TRAILER=====TRAILER=====TRAILER=====TRAILER=====TRAILER

http://www.imdb.com/title/tt1117563/trailers-screenplay-vi548995353

related torrents

Torrent name

health leech seeds Size
 


comments (0)

Main Menu