The Dovekeepers | Ludacris | Fisher King 1991 720p BRRip x264 AAC-Ozlem

Action

The Incredible Hulk 2008 TS XVID STG

  • Download 5x Faster
  • Download torrent
  • Direct Download
  • Rate this torrent +  |  -
The Incredible Hulk 2008 TS XVID STG

Anonymous and Free Direct Download 300GB+


Torrent info

Name:The Incredible Hulk 2008 TS XVID STG

Total Size: 864.87 MB

Magnet: Magnet Link

Seeds: 1

Leechers: 283

Stream: Watch Online @ Movie4u

Last Updated: 2010-11-15 13:07:42 (Update Now)

Torrent added: 2008-06-28 12:36:33



VPN For Torrents

Torrent Files List


incrediblehulk-poster.jpg (Size: 864.87 MB) (Files: 5)

 incrediblehulk-poster.jpg

74.58 KB

 Logo.jpg

205.50 KB

 nfo.txt

2.88 KB

 The Incredible Hulk 2008 TS XVID - STG.avi

864.59 MB

 Torrent downloaded from Demonoid.com.txt

0.05 KB
 

Announce URL: http://tpb.tracker.thepiratebay.org:80/announce

Torrent description

General
Complete name : The Incredible Hulk 2008 TS XVID - STG.avi
Format : AVI
Format/Info : Audio Video Interleave
File size : 865 MiB
Duration : 1h 45mn
Overal bit rate : 1148 Kbps
Movie name : The Incredible Hulk 2008 TS XVID - STG
Writing application : M333-FLAWL3SS_RG

Video
Format : MPEG-4 Visual
Format profile : Streaming [email protected]
Format settings, BVOP : Yes
Format settings, QPel : No
Format settings, GMC : No warppoints
Format settings, Matrix : Default
Muxing mode : Packet Bitstream
Codec ID : XVID
Codec ID/Hint : XviD
Duration : 1h 45mn
Bit rate : 915 Kbps
Width : 608 pixels
Height : 256 pixels
Display aspect ratio : 2.35
Frame rate : 25.000 fps
Resolution : 8 bits
Colorimetry : 4:2:0
Scan type : Progressive
Bits/(Pixel*Frame) : 0.235
Stream size : 689 MiB
Writing library : XviD 1.2.0.dev47 (UTC 2006-11-01)

Audio
Format : AC-3
Format/Info : Audio Coding 3
Codec ID : 2000
Duration : 1h 45mn
Bit rate mode : Constant
Bit rate : 224 Kbps
Channel(s) : 2 channels
Channel positions : L R
Sampling rate : 48.0 KHz
Stream size : 169 MiB
Language : english

Hash

E4F182435363B1AA6612BD68A3EC248FA0B78CCE

Trackers

http://tpb.tracker.thepiratebay.org:80/announce

http://denis.stalker.h3q.com:6969/announce

http://open.tracker.thepiratebay.org/announce

http://www.torrentsnipe.info:2701/announce

http://open.tracker.thepiratebay.org/announce

http://vip.tracker.thepiratebay.org:80/announce


Screen Shots

The Incredible Hulk 2008 TS XVID   STG preview 0

The Incredible Hulk 2008 TS XVID   STG preview 1

The Incredible Hulk 2008 TS XVID   STG preview 2

The Incredible Hulk 2008 TS XVID   STG preview 3

The Incredible Hulk 2008 TS XVID   STG preview 4

The Incredible Hulk 2008 TS XVID   STG preview 5

The Incredible Hulk 2008 TS XVID   STG preview 6

The Incredible Hulk 2008 TS XVID   STG preview 7

IMDB

http://www.imdb.com/title/tt0800080/

OFFICIAL TRAILER=====OFFICIAL TRAILER=====OFFICIAL TRAILER=====OFFICIAL TRAILER

http://incrediblehulk.marvel.com/

related torrents

Torrent name

health leech seeds Size
 


comments (0)

Main Menu