S. Secret ICA | Devil May Cry DOWNLOAD ITA (2007) | Annie Lennox - Diva (Flac)

Anime - Other

Kannazuki + Yami

  • Download 5x Faster
  • Download torrent
  • Direct Download
  • Rate this torrent +  |  -
Kannazuki + Yami

Anonymous and Free Direct Download 300GB+


Torrent info

Name:Kannazuki + Yami

Total Size: 3.26 GB

Magnet: Magnet Link

Seeds: 1

Leechers: 4

Stream: Watch Online @ Movie4u

Last Updated: 2010-04-20 06:28:10 (Update Now)

Torrent added: 2008-06-28 18:33:20



VPN For Torrents

Torrent Files List


kannazuki + yami.txt (Size: 3.26 GB) (Files: 30)

 kannazuki + yami.txt

5.83 KB

 Kannazuki no Miko

  kan.txt

2.99 KB

  Kannaduki_no_Miko_01_Das Land dieser Welt.avi

177.24 MB

  Kannaduki_no_Miko_02_Ueberschneidung von Sonne und Mond.avi

174.96 MB

  Kannaduki_no_Miko_03_Geheime Muschel der Liebe.avi

171.95 MB

  Kannaduki_no_Miko_04_Der Weg der Gefuehle.avi

171.72 MB

  Kannaduki_no_Miko_05_Ueber die Dunkelheit der Nacht.avi

170.87 MB

  Kannaduki_no_Miko_06_Der Du die Sonne bist.avi

171.80 MB

  Kannaduki_no_Miko_07_Regenfall in der Hoelle der Liebe.avi

171.39 MB

  Kannaduki_no_Miko_08_Der Sturm des Silbermondes.avi

171.80 MB

  Kannaduki_no_Miko_09_Zur Hoelle.avi

179.05 MB

  Kannaduki_no_Miko_10_Einladung von Liebe und Tod.avi

183.85 MB

  Kannaduki_no_Miko_11_Tanz der Schwerter.avi

178.85 MB

  Kannaduki_no_Miko_12_Kannaduki no Miko.avi

175.74 MB

  Kannanzuki no miko.jpg

17.33 KB

 Yami to Boushi to Hon no Tabibito

  yami.txt

2.78 KB

  YamiBou02b.jpg

60.04 KB

  Yami_to_Boushi_to_Hon_no_Tabibito_-_01v2_-_Hatsuki_-_[BAF]_(h264,ger sub).mkv

93.51 MB

  Yami_to_Boushi_to_Hon_no_Tabibito_-_02_-_Youko_-_[BAF]_(h264,ger sub).mkv

93.92 MB

  Yami_to_Boushi_to_Hon_no_Tabibito_-_03v2_-_Jill_-_[BAF]_(h264,ger sub).mkv

94.19 MB

  Yami_to_Boushi_to_Hon_no_Tabibito_-_04_-_Mariel_-_[BAF](h264,ger sub).mkv

95.09 MB

  Yami_to_Boushi_to_Hon_no_Tabibito_-_05_-_Quill_-_[BAF](h264,ger sub).mkv

95.13 MB

  Yami_to_Boushi_to_Hon_no_Tabibito_-_06_-_Milka_-_[BAF](h264,ger sub).mkv

95.13 MB

  Yami_to_Boushi_to_Hon_no_Tabibito_-_07_-_Hatsumi_-_[BAF](h264, ger sub).mkv

95.09 MB

  Yami_to_Boushi_to_Hon_no_Tabibito_-_08_-_Prinzessin_Fuji_-_[BAF](h264,ger sub).mkv

95.08 MB

  Yami_to_Boushi_to_Hon_no_Tabibito_-_09v2_-_Meirin_-_[BAF](h264,ger sub).mkv

95.14 MB

  Yami_to_Boushi_to_Hon_no_Tabibito_-_10v2_-_Layla_-_[BAF](h264, ger sub).mkv

95.15 MB

  Yami_to_Boushi_to_Hon_no_Tabibito_-_11_-_Tamamonomae_-_[BAF](h264,ger sub).mkv

95.12 MB

  Yami_to_Boushi_to_Hon_no_Tabibito_-_12_-_Gargantua_-_[BAF](h264,ger sub).mkv

95.12 MB

  Yami_to_Boushi_to_Hon_no_Tabibito_-_13_-_Lilith_-_[BAF](h264,ger sub).mkv

96.80 MB
 

Announce URL: http://adbt.ath.cx/announce0000000000000000.php

Torrent description

Kannazuki no Miko 12/12 ger.sub

Himemiya Chikane kommt aus einer wohlhabenen Familie und ist einfach gut in allem was sie anfängt. Beliebt bei den anderen Schülern und bewundert für ihr Talent ist sie aber doch recht einsam. Ihre einzige Freundin ist Kurusugawa Himeko, doch da sie, unscheinbar wie sie ist, an der Schule einem anderen Stand angehört, halten die Mädchen diese Freundschaft geheim. Wenn sie heimlich ihre Mittagspausen miteinander verbringen, vergessen beide ihren Alltag. Der Zufall will, dass sie ihren Geburtstag teilen und der fällt in diesem Jahr besonders aus, denn tags zuvor bricht eine Sonnenfinsternis über der Stadt Mahoroba herein. Der gottlose Monat hat begonnen und die sieben sogenannten Orochi werden erweckt um die Welt ins Dunkel zu stürzen. Einzig die beiden Priesterinnen der Sonne und des Mondes können gehen sie antreten und das sind Chikane und Himeko.
Verkompliziert wird die Situation, da einer der Orochi der junge Oogami Souma ist, der Himeko liebt und immer für sie da sein will. Er stellt sich also gegen die anderen Orochi und wird für Chikane zu einem Rivalen, da auch sie Gefühle für Himeko hegt.

Episode 1:

Format : AVI
Format/Info : Audio Video Interleave
Dateigre : 177 MiB
Duration : 24min
Gesamte Bitrate : 1011 Kbps
verwendete Encoder-Bibliothek : VirtualDub build 18160/release

Video
Format : MPEG-4 Visual
Format profile : Streaming [email protected]:Codec
Codec : XviD
Duration : 24min
Bitrate : 842 Kbps
Breite : 704 Pixel
Höhe : 396 Pixel
Bildseitenverhältnis : 16/9
Bildwiederholungsrate : 23.976 FPS
Auflösung : 8 bits
Colorimetry : 4:2:0
Scan type : Progressive
Bits/(Pixel*Frame) : 0.126
Stream size : 148 MiB
verwendete Encoder-Bibliothek : XviD 1.0.2
verwendete Encoder-Bibliothek /D : UTC 2004-08-29

Audio
Format : MPEG Audio
Format version : Version 1 / Layer 3
Codec ID : 55
Codec ID/Hint : MP3
Duration : 24min
Bitraten-Modus : CBR
Bitrate : 160 Kbps
Kanäle : 2 Kanäle
Samplingrate : 48.0 KHz
Auflösung : 16 bits
Video0 Verzögerung : 24ms
Stream size : 28.0 MiB

die anderen Episoden sind ähnlich von den Werten


Yami to Boushi to Hon no Tabibito [ger sub] 13/13 (h264)

Hatsuki ist High School Studentin und lebt zusammen mit ihrer Klassenkameradin Hatsumi, in die sie sich verliebt hat. An Hatsumis sechszehenten Geburtstag, wird sie von einem gleißenden grünen Licht eingehült und verschwindet vor den Augen von Hatsuki. Ihr gelingt es , mit der Hilfe eines einem gelben fetten Kükenähnlichen Ding, Hatsumi zu folgen. Sie landet an einem Platz der "Die große Bücherei" genannt wird. Die Suche nach Hatsukis großer Liebe beginnt mit der Reise von Buch zu Buch...

Episode 1:

Format : Matroska
Dateigre : 93.5 MiB
Duration : 23min
Gesamte Bitrate : 548 Kbps
Kodierungsdatum : UTC 2007-05-10 14:00:30
Verwendetes Programm : mkvmerge v1.7.0 ('What Do You Take Me For') built on Apr 28 2006 17:20:19
verwendete Encoder-Bibliothek : libebml v0.7.7 + libmatroska v0.8.0


Video
Format : AVC
Format/Info : Advanced Video Codec
Format profile : [email protected]
Format settings, CABAC : Yes
Format settings, ReFrames : 2
Codec ID : V_MPEG4/ISO/AVC
Duration : 23min
Nominal bit rate : 400 Kbps
Breite : 640 Pixel
Höhe : 480 Pixel
Bildseitenverhältnis : 4/3
Bildwiederholungsrate : 23.976 FPS
Colorimetry : 4:2:0
Scan type : Progressive
Bits/(Pixel*Frame) : 0.054

Audio
Format : Vorbis
Codec ID : A_VORBIS
Duration : 23min
Bitraten-Modus : VBR
Kanäle : 2 Kanäle
Samplingrate : 48.0 KHz
Sprache : Japanisch

Text
Format : ASS
Codec ID : S_TEXT/ASS
Codec ID/Info : Advanced Sub Station Alpha

Audio: japanisch
Untertitel: deutsch

related torrents

Torrent name

health leech seeds Size

Navagraha Yami Yami avi

0 0 92.01 MB 0
 


comments (0)

Main Menu